XBMC mit MP4 h.264 audio aussetzer

kaderekusen

Lieutenant
Dabei seit
Okt. 2002
Beiträge
927
hi habe hier ein problem mit gerade am unkonvertieren.

und zwar dieses format:


General
Complete name : \\Aspirehome\Videos\Dokus\Astronomie\Alpha Centauri\Alpha.Centauri.Teil.9.Raetselhaftes.Katastrophales2 S02E10.avi
Format : AVI
Format/Info : Audio Video Interleave
File size : 700 MiB
Duration : 1h 9mn
Overall bit rate : 1 409 Kbps
Writing application : Nandub v1.0rc2
Writing library : Nandub build 1853/release

Video
ID : 0
Format : MPEG-4 Visual
Format profile : AdvancedSimple@L5
Format settings, BVOP : Yes
Format settings, QPel : Yes
Format settings, GMC : 3 warppoints
Format settings, Matrix : Default (MPEG)
Muxing mode : Packed bitstream
Codec ID : XVID
Codec ID/Hint : XviD
Duration : 1h 9mn
Bit rate : 1 272 Kbps
Width : 640 pixels
Height : 480 pixels
Display aspect ratio : 4:3
Frame rate : 25.000 fps
Resolution : 24 bits
Colorimetry : 4:2:0
Scan type : Progressive
Bits/(Pixel*Frame) : 0.166
Stream size : 632 MiB (90%)
Writing library : XviD 1.2.1 (UTC 2008-12-04)

Audio
ID : 1
Format : AC-3
Format/Info : Audio Coding 3
Codec ID : 2000
Duration : 1h 9mn
Bit rate mode : Constant
Bit rate : 128 Kbps
Channel(s) : 2 channels
Channel positions : L R
Sampling rate : 48.0 KHz
Stream size : 63.6 MiB (9%)
Alignment : Split accross interleaves
Interleave, duration : 40 ms (1.00 video frame)
Interleave, preload duration : 500 ms




in dieses format:



General
Complete name : \\Aspirehome\Videos\4Itunes konverted\Alpha Centauri\Alpha.Centauri.Teil.12.Physikalische.Prozesse.Neues.aus.dem.Sonnensystem2 S04E16.mp4
Format : MPEG-4
Format profile : Base Media / Version 2
Codec ID : mp42
File size : 632 MiB
Duration : 1h 7mn
Overall bit rate : 1 300 Kbps
Encoded date : UTC 2011-04-06 21:43:10
Tagged date : UTC 2011-04-06 21:44:03
Writing application : mp4creator 1.6.1d

Video
ID : 1
Format : AVC
Format/Info : Advanced Video Codec
Format profile : -email-
Format settings, CABAC : No
Format settings, ReFrames : 1 frame
Codec ID : avc1
Codec ID/Info : Advanced Video Coding
Duration : 1h 7mn
Bit rate mode : Variable
Bit rate : 1 172 Kbps
Width : 640 pixels
Height : 480 pixels
Display aspect ratio : 4:3
Frame rate mode : Constant
Frame rate : 25.000 fps
Resolution : 24 bits
Colorimetry : 4:2:0
Scan type : Progressive
Bits/(Pixel*Frame) : 0.153
Stream size : 570 MiB (90%)
Encoded date : UTC 2011-04-06 21:43:10
Tagged date : UTC 2011-04-06 21:43:58

Audio
ID : 2
Format : AAC
Format/Info : Advanced Audio Codec
Format version : Version 4
Format profile : LC
Format settings, SBR : No
Codec ID : 40
Duration : 1h 7mn
Bit rate mode : Variable
Bit rate : 126 Kbps
Maximum bit rate : 174 Kbps
Channel(s) : 2 channels
Channel positions : L R
Sampling rate : 44.1 KHz
Resolution : 16 bits
Stream size : 61.0 MiB (10%)
Encoded date : UTC 2011-04-06 21:43:58
Tagged date : UTC 2011-04-06 21:44:03


damit ihr das ergebniss sieht habe ich es mal aufgenommen. mit vlc klappt es wunderbar jedoch sobald ich die selbe datei mit xbmc abspielen will passiert das was man im video hören kann, aussetzer, wiederholungen usw.... was mache ich falsch? es liegt 100% an mir hehe, weis nur nicht wo das problem liegt. iphone spielt es ohne probleme ab, itunes auch, vlc auch nur bei xbmc machts probleme woran kann es liegen?

hier das video mit dem xbmc problem...

http://www.youtube.com/watch?v=Kh-OHykCnNw
 
Zuletzt bearbeitet:

FusseLWooW

Lieutenant
Dabei seit
Jan. 2011
Beiträge
813
link geht net
 

kaderekusen

Lieutenant
Ersteller dieses Themas
Dabei seit
Okt. 2002
Beiträge
927
wen ihr richtig aufpasst bekommt ihr mit das das erste video flüssig leuft jedoch die audio spur hin und herspringt und am ende sogar sich wiederholt, und tottal async ist. im 2. video ist es die selbe datei nur halt mit vlc und dort sieht ihr wie es auch in xbmc sein sollte. also woran liegt es an mir an xbmc? was mus ich am format ändern damit es auch in xbmc klappt wie in vlc auch ja mir ist nur wichtig das es in mp4 ist muss nicht mal h.264 sein. es sollte aber die gleich MB größe haben und die selbe auflösung wie die original datei in xvid.

warum das ganze? ich möchte die videos auch in itunes haben nicht nur in xbmc weil ich mit itunes dan under freigabe auch die videos haben darf und sie dan über meinen iphone drauf zugreifen kann.


ach ja also xbmc kann mp4 abspielen auch h.264 dateien gettestet mit meinem iphone4 aufnahmen die ich in xbmc problemlos abspielen konnte. es liegt also an meiner codec einstellung
 

Ähnliche Themen

H
Antworten
9
Aufrufe
3.387
H264Frage
H
Top